Amanecer.de.un.sueno.DVDRip.Castellano Online Descargar Gratis

Amanecer.de.un.sueno.DVDRip.Castellano Online Descargar Gratis

Películas Series y TV Gratis peliculas-gratis






Año: 2010

Genero: Drama

Duracion: 100 Minutos

Resumen:

Marcel, que ha sido abandonado por su madre, crece asociado a su abuelo Pascual. Cuando cumple veinte años y planea emanciparse, se da comisión de que ahora tiene que depurar a su abuelo que presenta sintomas de la enfermedad de Alzheimer.

Datos Importantes Calidad del video: DVD RIP

Peso: 856 mb

Idioma del audio: Español España

Datos Extras ESTRENO DVD - Castellano AC3 5.1


General

Complete name : files/_-_tej_-_Amane_-_cer.de.un.sueno.DVDRip.Castellano.avi

Format : AVI

Format/Info : Audio Video Interleave

File size : 857 MiB

Duration : 1h 33mn

Overall bit rate : 1 275 Kbps

Writing application : Lavf52.78.4

Video

ID : 0

Format : MPEG-4 Visual

Format profile : Advanced Simple@L5

Format settings, BVOP : Yes

Format settings, QPel : No

Format settings, GMC : No warppoints

Format settings, Matrix : Default (H.263)

Muxing mode : Packed bitstream

Codec ID : XVID

Codec ID/Hint : XviD

Duration : 1h 33mn

Bit rate : 1 073 Kbps

Width : 720 pixels

Height : 386 pixels

Display aspect ratio : 1.865

Frame rate : 25.000 fps

Color space : YUV

Chroma subsampling : 4:2:0

Bit depth : 8 bits

Scan type : Progressive

Bits/(Pixel*Frame) : 0.154

Stream size : 720 MiB (84%)

Writing library : XviD 1.2.1 (UTC 2008-12-04)

Audio

ID : 1

Format : AC-3

Format/Info : Audio Coding 3

Mode extension : CM (complete main)

Codec ID : 2000

Duration : 1h 33mn

Bit rate mode : Constant

Bit rate : 192 Kbps

Channel(s) : 2 channels

Channel positions : Front: L R

Sampling rate : 48.0 KHz

Bit depth : 16 bits

Stream size : 129 MiB (15%)

Alignment : Aligned on interleaves

Interleave, duration : 32 ms (0.80 video frame)

Interleave, preload duration : 32 ms


1 link








bajar Amanecer.de.un.sueno.DVDRip.Castellano Pelicula Gratis



Autor: reydelcaos
http://resumenes-capitulos.blogspot.com/

No hay comentarios:

Publicar un comentario