Como Entrenar A Tu Dragon [HD-Rip][Castellano][Aventura][2010]

Como Entrenar A Tu Dragon [HD-Rip][Castellano][Aventura][2010]

Películas Series y TV Gratis 2010 aventura castellano Como dragon entrenar hdrip




 
Año: 2010
Género: Aventura
Duración: 98 Minutos
 
Resumen:
 
La historia se centra alrededor de un vikingo adolescente llamado Hipo que vive en la isla de Berk, donde luchar contra dragones es un modo de vida. Su sabiduria juvenil y su especial sentido del humor no sientan demasiado bien a su tribu y a su jefeÂ…que ademas es su padre. Sin embargo, cuando su entrenamiento con otros vikingos adolescentes va a comenzar, Hipo ve la oportunidad de demostrar a su padre y a su tribu su valia. Pero cuando encuentre y, en definitiva, se haga amigo de un dragon herido, su mundo se volvera del reves, y lo que empezo como una prueba para Hipo se convertira en una oportunidad para cambiar el futuro de toda su tribu.
 
Datos Importantes
 
Calidad del video: HD Rip
Peso: 2150 mb
Idioma del audio: Español España
 
Datos Extras
 
Castellano AC3 5.1 - Capturas Reales! 
 

 
General
Complete name                    : 47_EmpresaYER.avi
Format                           : AVI
Format/Info                      : Audio Video Interleave
Format profile                   : OpenDML
File size                        : 2.00 GiB
Duration                         : 1h 37mn
Overall bit rate                 : 2 933 Kbps
Writing application              : VirtualDubMod 1.5.10.2 (build 2540/release)
Writing library                  : VirtualDubMod build 2540/release
 
Video
ID                               : 0
Format                           : MPEG-4 Visual
Format profile                   : Advanced Simple@L5
Format settings, BVOP            : 2
Format settings, QPel            : No
Format settings, GMC             : No warppoints
Format settings, Matrix          : Default (MPEG)
Codec ID                         : XVID
Codec ID/Hint                    : XviD
Duration                         : 1h 37mn
Bit rate                         : 2 168 Kbps
Width                            : 720 pixels
Height                           : 304 pixels
Display aspect ratio             : 2.35:1
Frame rate                       : 23.976 fps
Color space                      : YUV
Chroma subsampling               : 4:2:0
Bit depth                        : 8 bits
Scan type                        : Progressive
Compression mode                 : Lossy
Bits/(Pixel*Frame)               : 0.413
Stream size                      : 1.48 GiB (74%)
Writing library                  : XviD 1.2.1 (UTC 2008-12-04)
 
Audio
ID                               : 1
Format                           : AC-3
Format/Info                      : Audio Coding 3
Mode extension                   : CM (complete main)
Codec ID                         : 2000
Duration                         : 1h 37mn
Bit rate mode                    : Constant
Bit rate                         : 640 Kbps
Channel(s)                       : 6 channels
Channel positions                : Front: L C R, Side: L R, LFE
Sampling rate                    : 48.0 KHz
Bit depth                        : 16 bits
Compression mode                 : Lossy
Stream size                      : 448 MiB (22%)
Alignment                        : Split accross interleaves
 



 




Autor: empresayer
http://resumenes-capitulos.blogspot.com/

No hay comentarios:

Publicar un comentario