El Hombre De La Mascara De Hierro [HD][Castellano][Aventura][1998] Online Descargar Gratis (3 del 5 de 2011)

El Hombre De La Mascara De Hierro [HD][Castellano][Aventura][1998] Online Descargar Gratis (3 del 5 de 2011)

Películas Series y TV Gratis peliculas-gratis




Informacion de la Pelicula

Titulo original: The Man in the Iron Mask
Año: 1998
Genero: Aventura
Duracion: 127 Minutos

Resumen:

Francia se muere de hambre, mientras el Rey Luis XIV (Leonardo DiCaprio) mantiene un reinado de terror. Solo "los tres mosqueteros" (Jeremy lrons, John Malkovich y Gerard Depardieu) podran salir al rescate. Su mision: eximir a un misterioso prisionero en La Bastilla, en cuya identidad radica el clandestino que podra librar a la nacion...

Datos Importantes

Calidad del video: HD (720p)
Peso: 3070 mb
Idioma del audio: Español España

Datos Extras Audio :

Español AC3 5.1 Dual Español/Ingles Subtitulos



Codigo:
General 
Unique ID :     187676296789278381543497153439179505999 (0x8D3123D5FABF1CDB91E3D8AD7C64814F) 
Complete name :     files/158_EmpresaYER.mkv 
Format :     Matroska 
File size :     3.07 GiB 
Duration :     2h 12mn 
Overall bit rate :     3 328 Kbps 
Movie name :     El hombre de la mascara de hierro - Montado por Grupo HD-DD 
Encoded date :     UTC 2011-04-04 10:01:19 
Writing application :     mkvmerge v2.2.0 ("Freak U") built on Sep 8 2008 16:20:24 
Writing library :     libebml v0.7.7 + libmatroska v0.8.1 
 
Video 
ID :     1 
Format :     AVC 
Format/Info :     Advanced Video Codec 
Format profile :      
Format settings, CABAC :     Yes 
Format settings, ReFrames :     8 frames 
Codec ID :     V_MPEG4/ISO/AVC 
Duration :     2h 12mn 
Bit rate :     2 500 Kbps 
Width :     1 280 pixels 
Height :     694 pixels 
Display aspect ratio :     16:9 
Frame rate :     23.976 fps 
Color space :     YUV 
Chroma subsampling :     4:2:0 
Bit depth :     8 bits 
Scan type :     Progressive 
Bits/(Pixel*Frame) :     0.117 
Stream size :     2.24 GiB (73%) 
Title :     Grupo HD-DD 
Writing library :     x264 core 80 r1376M 3feaec2 
Encoding settings :     cabac=1 / ref=8 / deblock=1:-3:-3 / analyse=0x3:0x113 / me=umh / subme=9 / psy=1 / psy_rd=1.0:0.0 / mixed_ref=0 / me_range=32 / chroma_me=1 / trellis=2 / 8x8dct=1 / cqm=2 / deadzone=21,11 / fast_pskip=0 / chroma_qp_offset=-2 / threads=6 / sliced_threads=0 / nr=100 / decimate=1 / mbaff=0 / constrained_intra=0 / bframes=3 / b_pyramid=0 / b_adapt=1 / b_bias=0 / direct=3 / wpredb=0 / wpredp=2 / keyint=250 / keyint_min=25 / scenecut=40 / rc_lookahead=40 / rc=2pass / mbtree=1 / bitrate=2500 / ratetol=1.0 / qcomp=0.30 / qpmin=10 / qpmax=51 / qpstep=4 / cplxblur=20.0 / qblur=0.5 / ip_ratio=1.40 / aq=1:2.00 
 
Audio #1 
ID :     2 
Format :     AC-3 
Format/Info :     Audio Coding 3 
Mode extension :     CM (complete main) 
Codec ID :     A_AC3 
Duration :     2h 12mn 
Bit rate mode :     Constant 
Bit rate :     448 Kbps 
Channel(s) :     6 channels 
Channel positions :     Front: L C R, Side: L R, LFE 
Sampling rate :     48.0 KHz 
Bit depth :     16 bits 
Compression mode :     Lossy 
Stream size :     424 MiB (13%) 
Title :     Grupo HD-DD 
Language :     Spanish 
 
Audio #2 
ID :     3 
Format :     AC-3 
Format/Info :     Audio Coding 3 
Mode extension :     CM (complete main) 
Codec ID :     A_AC3 
Duration :     2h 12mn 
Bit rate mode :     Constant 
Bit rate :     384 Kbps 
Channel(s) :     6 channels 
Channel positions :     Front: L C R, Side: L R, LFE 
Sampling rate :     48.0 KHz 
Bit depth :     16 bits 
Compression mode :     Lossy 
Stream size :     363 MiB (12%) 
Title :     Grupo HD-DD 
Language :     English 
 
Text #1 
ID :     4 
Format :     UTF-8 
Codec ID :     S_TEXT/UTF8 
Codec ID/Info :     UTF-8 Plain Text 
Title :     Grupo HD-DD 
Language :     English 
 
Text #2 
ID :     5 
Format :     UTF-8 
Codec ID :     S_TEXT/UTF8 
Codec ID/Info :     UTF-8 Plain Text 
Title :     Grupo HD-DD 
Language :     Spanish


ENLACES INTERCAMBIABLES

Codigo:
FileServe: 
 
  
  
  
  
  
  
  
 
FreakShare: 
 
  
  
  
  
  
  
  
 
Bitshare: 
 
  
  
  
  
  
  
 









Autor: reydelcaos
http://resumenes-capitulos.blogspot.com/

No hay comentarios:

Publicar un comentario