En Un Mundo Mejor [BR-Screener][Castellano][Drama][2011] Online Descargar Gratis (5 del 4 de 2011)

En Un Mundo Mejor [BR-Screener][Castellano][Drama][2011] Online Descargar Gratis (5 del 4 de 2011)

Películas Series y TV Gratis peliculas-gratis




Año: 2011
Genero: Drama
Duracion: 110 Minutos

Resumen:

La historia va desde un campo de refugiados en Africa hasta la cotidianidad grisacea de una ciudad danesa de provincias. Las vidas de dos familias se entrecruzan y nace una extraordinaria, aunque arriesgada amistad. Pero la soledad, la fragilidad y la tristeza estan esperando para aparecer. Muy pronto, la amistad se transforma en una peligrosa alianza y en una persecucion desaforada con la vida en juego.

Datos Importantes

Calidad del video: Blu-Ray Screener
Peso: 1285 mb
Idioma del audio: Español España



Codigo:
General 
Complete name                    : 89_EmpresaYER.avi 
Format                           : AVI 
Format/Info                      : Audio Video Interleave 
File size                        : 1.26 GiB 
Duration                         : 1h 53mn 
Overall bit rate                 : 1 582 Kbps 
Writing application              : VirtualDubMod 1.5.4.1 (build 2178/release) 
Writing library                  : VirtualDubMod build 2178/release 
 
Video 
ID                               : 0 
Format                           : MPEG-4 Visual 
Format profile                   : Advanced Simple@L5 
Format settings, BVOP            : 1 
Format settings, QPel            : No 
Format settings, GMC             : No warppoints 
Format settings, Matrix          : Default (H.263) 
Muxing mode                      : Packed bitstream 
Codec ID                         : XVID 
Codec ID/Hint                    : XviD 
Duration                         : 1h 53mn 
Bit rate                         : 1 444 Kbps 
Width                            : 720 pixels 
Height                           : 304 pixels 
Display aspect ratio             : 2.35:1 
Frame rate                       : 25.000 fps 
Color space                      : YUV 
Chroma subsampling               : 4:2:0 
Bit depth                        : 8 bits 
Scan type                        : Progressive 
Compression mode                 : Lossy 
Bits/(Pixel*Frame)               : 0.264 
Stream size                      : 1.15 GiB (91%) 
Writing library                  : XviD 1.2.1 (UTC 2008-12-04) 
 
Audio 
ID                               : 1 
Format                           : MPEG Audio 
Format version                   : Version 1 
Format profile                   : Layer 3 
Mode                             : Joint stereo 
Mode extension                   : MS Stereo 
Codec ID                         : 55 
Codec ID/Hint                    : MP3 
Duration                         : 1h 53mn 
Bit rate mode                    : Constant 
Bit rate                         : 128 Kbps 
Channel(s)                       : 2 channels 
Sampling rate                    : 48.0 KHz 
Compression mode                 : Lossy 
Stream size                      : 104 MiB (8%) 
Alignment                        : Aligned on interleaves 
Interleave, duration             : 40 ms (1.00 video frame) 
Interleave, preload duration     : 504 ms




Codigo:
 









Autor: reydelcaos
http://resumenes-capitulos.blogspot.com/

No hay comentarios:

Publicar un comentario