Inside Job [DVDrip][Sub. Español][Documental][2010]

Inside Job [DVDrip][Sub. Español][Documental][2010]

Películas Series y TV Gratis 2010 documental dvdrip inside Job subtitulo




 
Año: 2010
Género: Documental
Duración: 105 Minutos
 
Resumen:
 
Documental sobre las causas y los responsables de la crisis economica mundial de 2008, que para millones de personas significo la perdida de sus hogares y empleos y que puso en peligro la estabilidad economica de casi todos los paises desarrollados. A traves de una extensa investigacion y entrevistas a fuentes financieras, politicos y periodistas, se muestra el auge de empresarios sin escrupulos y la degradacion de la politica y la educacion.
 
Datos Importantes
 
Calidad del video: DVD RIP
Peso: 700 mb
Idioma del audio: Version original subtitulos en español
 
Datos Extras
 
Capturas Reales! 
 

 

General
Complete name                    : 33_EmpresaYER.avi
Format                           : AVI
Format/Info                      : Audio Video Interleave
File size                        : 700 MiB
Duration                         : 1h 48mn
Overall bit rate                 : 901 Kbps
Writing application              : VirtualDubMod 1.5.10.2 (build 2542/release)
Writing library                  : VirtualDubMod build 2542/release
 
Video
ID                               : 0
Format                           : MPEG-4 Visual
Format profile                   : Advanced Simple@L5
Format settings, BVOP            : 1
Format settings, QPel            : No
Format settings, GMC             : No warppoints
Format settings, Matrix          : Default (H.263)
Muxing mode                      : Packed bitstream
Codec ID                         : XVID
Codec ID/Hint                    : XviD
Duration                         : 1h 48mn
Bit rate                         : 761 Kbps
Width                            : 640 pixels
Height                           : 272 pixels
Display aspect ratio             : 2.35:1
Frame rate                       : 23.976 fps
Color space                      : YUV
Chroma subsampling               : 4:2:0
Bit depth                        : 8 bits
Scan type                        : Progressive
Compression mode                 : Lossy
Bits/(Pixel*Frame)               : 0.182
Stream size                      : 592 MiB (84%)
Writing library                  : XviD 1.2.1 (UTC 2008-12-04)
 
Audio
ID                               : 1
Format                           : MPEG Audio
Format version                   : Version 1
Format profile                   : Layer 3
Mode                             : Joint stereo
Mode extension                   : MS Stereo
Codec ID                         : 55
Codec ID/Hint                    : MP3
Duration                         : 1h 48mn
Bit rate mode                    : Variable
Bit rate                         : 128 Kbps
Channel(s)                       : 2 channels
Sampling rate                    : 48.0 KHz
Compression mode                 : Lossy
Stream size                      : 98.9 MiB (14%)
Alignment                        : Aligned on interleaves
Interleave, duration             : 24 ms (0.58 video frame)
Interleave, preload duration     : 144 ms
Writing library                  : LAME3.90.
Encoding settings                : -m j -V 4 -q 2 -lowpass 17.6 --abr 128

 



 

http://www.fileserve.com/file/Sc4zJxb



Autor: empresayer
http://resumenes-capitulos.blogspot.com/

No hay comentarios:

Publicar un comentario en la entrada