Mandibulas.3.HDRip.Castellano Online Descargar Gratis

Mandibulas.3.HDRip.Castellano Online Descargar Gratis

Películas Series y TV Gratis peliculas-gratis





Año: 2010

Genero: Terror - julepe

Duracion: 93 Minutos

Resumen:

Un guardabosques, su mujer y su hijo se trasladan a vivir a una cabaña junto a un lago, propiedad de la tia del niño. El diminuto comienza a nutrir a unos cocodrilos bebes como si fueran animales domesticos, sin preveer que al cabo de poco tiempo, los cocodrilos comenzaran a ver a la familia como su alimento. Tercera jirón de la saga Lake Placid (Mandibulas), que argumentalmente no tiene nada que ver con las anteriores.

Datos Importantes Calidad del video: HD Rip

Peso: 1480 mb

Idioma del audio: Español España

General

Complete name : files/Mandibulas.3.HDRip.Castellano.avi

Format : AVI

Format/Info : Audio Video Interleave

File size : 1.44 GiB

Duration : 1h 31mn

Overall bit rate : 2 244 Kbps

Writing application : VirtualDubMod 1.5.10.2 (build 2540/release)

Writing library : VirtualDubMod build 2540/release

Video

ID : 0

Format : MPEG-4 Visual

Format profile : Advanced Simple@L5

Format settings, BVOP : Yes

Format settings, QPel : No

Format settings, GMC : No warppoints

Format settings, Matrix : Default (H.263)

Codec ID : XVID

Codec ID/Hint : XviD

Duration : 1h 31mn

Bit rate : 1 786 Kbps

Width : 704 pixels

Height : 384 pixels

Display aspect ratio : 16:9

Frame rate : 25.000 fps

Color space : YUV

Chroma subsampling : 4:2:0

Bit depth : 8 bits

Scan type : Progressive

Bits/(Pixel*Frame) : 0.264

Stream size : 1.14 GiB (80%)

Writing library : XviD 1.1.2 (UTC 2006-11-01)

Audio

ID : 1

Format : AC-3

Format/Info : Audio Coding 3

Mode extension : CM (complete main)

Codec ID : 2000

Duration : 1h 31mn

Bit rate mode : Constant

Bit rate : 448 Kbps

Channel(s) : 6 channels

Channel positions : Front: L C R, Side: L R, LFE

Sampling rate : 48.0 KHz

Bit depth : 16 bits

Stream size : 294 MiB (20%)

Alignment : Split accross interleaves

Interleave, duration : 40 ms (1.00 video frame)

Interleave, preload duration : 500 ms


3link










bajar Mandibulas.3.HDRip.Castellano Pelicula Gratis



Autor: reydelcaos
http://resumenes-capitulos.blogspot.com/

No hay comentarios:

Publicar un comentario