Ray Screener][Castellano][Infantil][2011] Online Descargar Gratis

Ray Screener][Castellano][Infantil][2011] Online Descargar Gratis

Películas Series y TV Gratis peliculas-gratis





Año: 2011
Genero: Animacion - infantil
Duracion: 104 Minutos

Resumen:

Rapunzel es una princesa que fue robada a sus padres cuando época un bebe y encerrada en una torre. Ahora es ya una mancebo muy imaginativa y decidida que consigue escapar de su encierro con la subsidio de un bandido encantador. Este increíble duo se v época embarcado en una divertida huida llena de aventura, emocion, jovialidad y montones de pelo.

Datos Importantes

Calidad del video: Blu-Ray Screener
Peso: 1500 mb
Idioma del audio: Español España

Datos Extras

AUDIO AC3 2.0 MIC - CAPTURAS REALES!



Codigo:
Gen épocal
Complete name                    : Enredados_BRScreener_EmpresaYER.avi
Format                           : AVI
Format/Info                      : Audio Video Interleave
File size                        : 1.52 GiB
Duration                         : 1h 40mn
Ov épocall bit rate                 : 2 176 Kbps
Writing application              : VirtualDubMod 1.5.10.2 (build 2542/release)
Writing library                  : VirtualDubMod build 2542/release


Video

ID : 0

Format : MPEG-4 Visual

Format profile : Advanced Simple@L5

Format settings, BVOP : Yes

Format settings, QPel : No

Format settings, GMC : No warppoints

Format settings, Matrix : Default (MPEG)

Codec ID : XVID

Codec ID/Hint : XviD

Duration : 1h 40mn

Bit rate : 1 975 Kbps

Width : 720 pixels

Height : 400 pixels

Display aspect ratio : 16:9

Frame rate : 23.976 fps

Color space : YUV

Chroma subsampling : 4:2:0

Bit depth : 8 bits

Scan type : Progressive

Compression mode : Lossy

Bits/(Pixel*Frame) : 0.286

Stream size : 1.38 GiB (91%)

Writing library : XviD 1.2.1 (UTC 2008-12-04)


Audio

ID : 1

Format : MPEG Audio

Format version : Version 1

Format profile : Layer 3

Mode : Joint stereo

Codec ID : 55

Codec ID/Hint : MP3

Duration : 1h 40mn

Bit rate mode : Constant

Bit rate : 192 Kbps

Channel(s) : 2 channels

Sampling rate : 48.0 KHz

Compression mode : Lossy

Stream size : 138 MiB (9%)

Alignment : Aligned on interleaves

Interleave, duration : 42 ms (1.00 video frame)

Interleave, preload duration : 504 ms












Codigo:


 
















bajar Enredados [Blu-Ray Screener][Castellano][Infantil][2011] Pelicula Gratis

















Hace 1 Minuto
















Re: Enredados [Blu-Ray Screener][Castellano][Infantil][2011]







la descarga no tiene nada!!! lo sibiste mal!!!



















Autor: reydelcaos

http://resumenes-capitulos.blogspot.com/

No hay comentarios:

Publicar un comentario