S W A T Firefight [DVDrip][Castellano][Accion][2011] Online Descargar Gratis

S W A T Firefight [DVDrip][Castellano][Accion][2011] Online Descargar Gratis

Películas Series y TV Gratis peliculas-gratis




Año: 2011
Genero: Accion
Duracion: 94 Minutos

Resumen:

Transferido a Detroit para entrena a un equipo SWAT local a traves de un duro regimen, el teniente Paul Cutler -policia de Los Angeles- se termina metiendo entre los planes de un genio homicida que esta protegido por funcionarios del gobierno.

Datos Importantes

Calidad del video: DVD RIP
Peso: 1250 mb
Idioma del audio: Español España

Datos Extras

ESTRENO DVD - Capturas Reales!



Codigo:
General 
Complete name                    : 39_EmpresaYER.avi 
Format                           : AVI 
Format/Info                      : Audio Video Interleave 
File size                        : 1.19 GiB 
Duration                         : 1h 24mn 
Overall bit rate                 : 2 012 Kbps 
Writing application              : VirtualDubMod 1.5.10.2 (build 2540/release) 
Writing library                  : VirtualDubMod build 2540/release 
 
Video 
ID                               : 0 
Format                           : MPEG-4 Visual 
Format profile                   : Advanced Simple@L5 
Format settings, BVOP            : 2 
Format settings, QPel            : No 
Format settings, GMC             : No warppoints 
Format settings, Matrix          : Default (H.263) 
Muxing mode                      : Packed bitstream 
Codec ID                         : DX50 
Codec ID/Hint                    : DivX 5 
Duration                         : 1h 24mn 
Bit rate                         : 1 554 Kbps 
Width                            : 720 pixels 
Height                           : 402 pixels 
Display aspect ratio             : 16:9 
Frame rate                       : 25.000 fps 
Color space                      : YUV 
Chroma subsampling               : 4:2:0 
Bit depth                        : 8 bits 
Scan type                        : Progressive 
Compression mode                 : Lossy 
Bits/(Pixel*Frame)               : 0.215 
Stream size                      : 945 MiB (77%) 
Writing library                  : XviD 1.2.1 (UTC 2008-12-04) 
 
Audio 
ID                               : 1 
Format                           : AC-3 
Format/Info                      : Audio Coding 3 
Mode extension                   : CM (complete main) 
Codec ID                         : 2000 
Duration                         : 1h 24mn 
Bit rate mode                    : Constant 
Bit rate                         : 448 Kbps 
Channel(s)                       : 6 channels 
Channel positions                : Front: L C R, Side: L R, LFE 
Sampling rate                    : 48.0 KHz 
Bit depth                        : 16 bits 
Compression mode                 : Lossy 
Stream size                      : 272 MiB (22%) 
Alignment                        : Split accross interleaves 
Interleave, duration             : 40 ms (1.00 video frame) 
Interleave, preload duration     : 500 ms




Codigo:
 









Autor: reydelcaos
http://resumenes-capitulos.blogspot.com/

No hay comentarios:

Publicar un comentario