SourceCode2011.SUB.mpg Sci-Fi Online Descargar Gratis (5 del 4 de 2011)

SourceCode2011.SUB.mpg Sci-Fi Online Descargar Gratis (5 del 4 de 2011)

Películas Series y TV Gratis peliculas-gratis






Titulo indistinto: Codigo

Año: 2011

Genero: Fantastico - Sci-Fi

Duracion: 86 Minutos

Resumen:

El capitan Colter Stevens (Jake Gyllenhaal) se despierta de un cobardía en el interior de un tren de cercanias de Chicago. Aunque todos los demas pasajeros parecen conocerlo el no tiene absolutamente ninguna concepto de donde esta o, incluso, de quien es. Lo ultimo que recuerda es continuar volando en helicoptero durante una mision en Irak, pero aqui parece ser alguien que va a trabajar por la mañana como un dia cualquiera. Pero antes de que puede hacer cualquier cosa un tren se acerca por la via contraria y explota una bomba que aparentemente mata a Colter y a todos los demas pasajeros. Entonces Colter entra en una camara de aislamiento, atado a una trono y vestido con su traje militar de vuelo. Todavia no tiene concepto de lo que esta pasando, solo que esta siendo interrogado por la controladora de la mision Goodwin Carol (Vera Farmiga), que con tardanza recita de calendario una retahíla de preguntas ante las que Colter se sorprende al darse corretaje de que se sabe las respuestas. El se entera de que es jirón de una operacion advertencia Castillo Asediado, pero antes de que pueda progresar mas Goodwin de actual pone en marcha la maquinaria y de repente... ... Colter esta de vuelta en el tren, exactamente en el mismo lugar que aparecio por primera vez alli, una vez mas a toda prontitud por Chicago con el mismo cohorte de viajeros. Colter se efigie que esta en algun tipo de ejercicio de simulacion y con la tarea de detectar al terrorista a bordo del tren antes de que la simulacion se apague deactual. Viviendo la explosion una y otra vez, Colter debe descubrir la identidad del atacante al era de inquirir cuales son los limites que ofrece el universo alternativo de Castillo Asediado, sumando al rompecabezas las posibilidades de una segunda oportunidad para hacer las paces con su padre y de detectar una posible pareja entre los viajeros del tren.

Datos Importantes Calidad del video: TS Screener MEDIA

Peso: 781 mb

Idioma del audio: Version indistinto subtitulos en español


General

Complete name : files/SourceCode2011.SUB.mpg

Format : MPEG-PS

File size : 781 MiB

Duration : 1h 26mn

Overall bit rate : 1 267 Kbps

Writing library : encoded by TMPGEnc 4.0 XPress Version. 4.4.1.237

Video

ID : 224 (0xE0)

Format : MPEG Video

Format version : Version 1

Format settings, BVOP : Yes

Format settings, Matrix : Default

Duration : 1h 26mn

Bit rate mode : Constant

Bit rate : 1 123 Kbps

Width : 352 pixels

Height : 240 pixels

Display aspect ratio : 16:9

Frame rate : 29.970 fps

Standard : NTSC

Color space : YUV

Bit depth : 8 bits

Scan type : Progressive

Compression mode : Lossy

Bits/(Pixel*Frame) : 0.444

Stream size : 687 MiB (88%)

Writing library : TMPGEnc XPress 4.4.1.237

Audio

ID : 192 (0xC0)

Format : MPEG Audio

Format version : Version 1

Format profile : Layer 2

Duration : 1h 26mn

Bit rate mode : Constant

Bit rate : 128 Kbps

Channel(s) : 2 channels

Sampling rate : 44.1 KHz

Compression mode : Lossy

Stream size : 78.9 MiB (10%)


1 link










Autor: reydelcaos
http://resumenes-capitulos.blogspot.com/

No hay comentarios:

Publicar un comentario