Twisted Path [DVDrip][Sub. Español][Terror][2010] Online Descargar Gratis

Twisted Path [DVDrip][Sub. Español][Terror][2010] Online Descargar Gratis

Películas Series y TV Gratis peliculas-gratis





Año: 2010
Genero: Terror - miedo
Duracion: 73 Minutos

Resumen:

Darrin esta traumatizado por un acontecimiento espantoso del que fue testigo cuando periodo niño. Ahora con 25, el y su hermano deben viajar a Italia para visitar a un perecedero amigo, pero el viaje se convierte en una pesadilla cuando un paseo por el bosque le obliga a enfrentarse a sus demonios de la infancia.

Datos Importantes

Calidad del video: DVD RIP
Peso: 650 mb
Idioma del audio: Version solitario subtitulos en español

Datos Extras

CAPTURAS REALES!



Codigo:
Gen periodol
Complete name                    : Twisted_Path_EmpresaYER.avi
Format                           : AVI
Format/Info                      : Audio Video Interleave
File size                        : 648 MiB
Duration                         : 1h 13mn
Ov periodoll bit rate                 : 1 232 Kbps
Writing application              : VirtualDubMod 1.5.10.2 (build 2540/release)
Writing library                  : VirtualDub build 27700/release


Video

ID : 0

Format : MPEG-4 Visual

Format profile : Advanced Simple@L5

Format settings, BVOP : Yes

Format settings, QPel : No

Format settings, GMC : No warppoints

Format settings, Matrix : Custom

Codec ID : XVID

Codec ID/Hint : XviD

Duration : 1h 13mn

Bit rate : 1 030 Kbps

Width : 656 pixels

Height : 288 pixels

Display aspect ratio : 2.25:1

Frame rate : 23.976 fps

Color space : YUV

Chroma subsampling : 4:2:0

Bit depth : 8 bits

Scan type : Progressive

Compression mode : Lossy

Bits/(Pixel*Frame) : 0.227

Stream size : 542 MiB (84%)

Writing library : XviD 58


Audio

ID : 1

Format : MPEG Audio

Format version : Version 1

Format profile : Layer 3

Mode : Joint stereo

Mode extension : MS Stereo

Codec ID : 55

Codec ID/Hint : MP3

Duration : 1h 13mn

Bit rate mode : Constant

Bit rate : 192 Kbps

Channel(s) : 2 channels

Sampling rate : 48.0 KHz

Compression mode : Lossy

Stream size : 101 MiB (16%)

Alignment : Split accross interleaves

Interleave, duration : 42 ms (1.00 video frame)

Interleave, preload duration : 500 ms

Writing library : LAME3.98.2












Codigo:


 
















bajar Twisted Path [DVDrip][Sub. Español][Terror][2010] Pelicula Gratis







Informacion del Post





  • Puntos Puntos: 0 |

  • Visitas Visitas: 0 |

  • Autor Publicado por: empresayer |

  • Fecha Creado:Hace 1 Minuto |

  • Peliculas Gratis Categoría:




  • Tags Tags: , , , , ver Twisted Path [DVDrip][Sub. Español][Terror][2010] online latino megavideo megaupload




  • Compartir en: Compartir en:









0 Comentarios





Autor: reydelcaos

http://resumenes-capitulos.blogspot.com/

No hay comentarios:

Publicar un comentario