Tyson[español][dvdrip][accion] Online Descargar Gratis

Tyson[español][dvdrip][accion] Online Descargar Gratis

Películas Series y TV Gratis peliculas-gratis





nformacion de la Pelicula Titulo original:

Año: 2009

Genero: Documental

Duracion: 86 Minutos

Resumen:

Documental que James Toback ha hecho sobre el ex-campeon mundial de los pesos pesados Mike Tyson. En el conciliación fragmentos de entrevistas con imagenes de archivo para hacer reanimar al excampeon mundial de los pesos pesados una savia que lo avergüenza

Datos Importantes Calidad del video: DVD RIP

Peso: 894 mb

Idioma del audio: Español España

Datos Extras


Codigo:
General
Complete name                    : /disco3/samperap/public_html/rapidleech/files/Descargas-Directas/Tyson.HDTV.Castellano.avi
Format                           : AVI
Format/Info                      : Audio Video Interleave
File size                        : 895 MiB
Duration                         : 1h 26mn
Overall bit rate                 : 1 448 Kbps
Writing application              : VirtualDubMod 1.5.4.1 (build 2178/release)
Writing library                  : VirtualDubMod build 2178/release


Video

ID : 0

Format : MPEG-4 Visual

Format profile : Advanced Simple@L5

Format settings, BVOP : 1

Format settings, QPel : No

Format settings, GMC : No warppoints

Format settings, Matrix : Custom

Codec ID : XVID

Codec ID/Hint : XviD

Duration : 1h 26mn

Bit rate : 1 313 Kbps

Width : 688 pixels

Height : 384 pixels

Display aspect ratio : 16:9

Frame rate : 25.000 fps

Color space : YUV

Chroma subsampling : 4:2:0

Bit depth : 8 bits

Scan type : Progressive

Compression mode : Lossy

Bits/(Pixel*Frame) : 0.199

Stream size : 811 MiB (91%)

Writing library : XviD 1.3.0.dev55


Audio

ID : 1

Format : MPEG Audio

Format version : Version 1

Format profile : Layer 3

Mode : Joint stereo

Codec ID : 55

Codec ID/Hint : MP3

Duration : 1h 26mn

Bit rate mode : Constant

Bit rate : 128 Kbps

Channel(s) : 2 channels

Sampling rate : 48.0 KHz

Compression mode : Lossy

Stream size : 79.1 MiB (9%)

Alignment : Aligned on interleaves

Interleave, duration : 80 ms (2.00 video frames)

Interleave, preload duration : 504 ms



1 link



fileserve



depositfiles





uploadbox



bitshare



multipartes



fileserve









depositfiles










freakshare









uploadbox




























Autor: reydelcaos

http://resumenes-capitulos.blogspot.com/

No hay comentarios:

Publicar un comentario