Universal Squadrons [DVDrip][Sub. Español][Belico][2010] Online Descargar Gratis (30 del 4 de 2011)

Universal Squadrons [DVDrip][Sub. Español][Belico][2010] Online Descargar Gratis (30 del 4 de 2011)

Películas Series y TV Gratis peliculas-gratis





Informacion de la Pelicula

Titulo solitario: Universal Squadrons
Año: 2010
Genero: Belico/guerra
Duracion: 79 Minutos

Resumen:

Despues de regresar a la savia civil como un ranchero de Texas, el Capitan Lance Deakin defiende de los ataques de los antiguos miembros de su circunstancia mientras lucha por descubrir la fundamento de lo que hizo como soldado en Irak. Los experimentos militares realizados en Lance y sus hombres para convertirlos en super-soldados y lavado el seso a retener sus misiones de alto anticonstitucional que el contenido de hiper-violento de un videojuego llamado Minuteman. Lance debe descubrir la fundamento a era para salvar a la mujer que ama..

Datos Importantes

Calidad del video: DVD RIP
Peso: 791 mb
Idioma del audio: Version solitario subtitulos en español



Codigo:
General
Complete name :     files/141_EmpresaYER.avi
Format :     AVI
Format/Info :     Audio Video Interleave
File size :     773 MiB
Duration :     1h 19mn
Overall bit rate :     1 364 Kbps
Writing application :     MEncoder 2:1.0~rc2-0ubuntu13.1
Writing library :     MPlayer


Video

ID : 0

Format : MPEG-4 Visual

Format profile : Advanced Simple@L5

Format settings, BVOP : 2

Format settings, QPel : No

Format settings, GMC : No warppoints

Format settings, Matrix : Default (H.263)

Codec ID : XVID

Codec ID/Hint : XviD

Duration : 1h 19mn

Bit rate : 1 167 Kbps

Width : 720 pixels

Height : 406 pixels

Display aspect ratio : 16:9

Frame rate : 25.000 fps

Color space : YUV

Chroma subsampling : 4:2:0

Bit depth : 8 bits

Scan type : Progressive

Compression mode : Lossy

Bits/(Pixel*Frame) : 0.160

Stream size : 662 MiB (86%)

Writing library : XviD 1.1.2 (UTC 2006-11-01)


Audio

ID : 1

Format : AC-3

Format/Info : Audio Coding 3

Mode extension : CM (complete main)

Codec ID : 2000

Duration : 1h 19mn

Bit rate mode : Constant

Bit rate : 192 Kbps

Channel(s) : 2 channels

Channel positions : Front: L R

Sampling rate : 48.0 KHz

Bit depth : 16 bits

Compression mode : Lossy

Delay relative to video : 40ms

Stream size : 109 MiB (14%)

Alignment : Split accross interleaves

Interleave, duration : 500 ms (12.50 video frames)

Interleave, preload duration : 500 ms












Codigo:


FileServe:



FreakShare:



Bitshare:



MegaUpload:






















Autor: reydelcaos

http://resumenes-capitulos.blogspot.com/

No hay comentarios:

Publicar un comentario