unt.Games.DVDRip.CastellanoAccion Online Descargar Gratis (27 del 4 de 2011)

unt.Games.DVDRip.CastellanoAccion Online Descargar Gratis (27 del 4 de 2011)

Películas Series y TV Gratis peliculas-gratis






Titulo original: Stunt Games

Año: 2010

Genero: Accion

Duracion: 72 Minutos

Resumen:

Adan y Samuel dos hermanos gemelos cuyo sueño es ente especialistas de cine, se ven envueltos en una tapadera montada por la mafia, tras haber aceptado un atractivo encargo para un presunto anuncio de television. El objetivo de este montaje es abolir el rastro de un acreditado constructor envuelto en una trama de corrupcion, simulando su fallecimiento, en un video que entea emitido en todos los informativos. Pero una filtracion en la policia precipita la realizacion de otro montaje para abolir las pruebas y las personas relacionadas con el montaje del anuncio, volviendo a fingir la fallecimiento de los implicados, esta vez con los propios gemelos como testigos de todo. Ahora luchan por su vida, y esta vez la accion es real.

Datos Importantes Calidad del video: DVD RIP

Peso: 1022 mb

Idioma del audio: Español España

Datos Extras Audio : Castellano AC3 5.1


General

Complete name : files/_-_Stunt.Games.DVDRip.Castellano--_tej_-_.avi

Format : AVI

Format/Info : Audio Video Interleave

File size : 998 MiB

Duration : 1h 12mn

Overall bit rate : 1 914 Kbps

Video

ID : 0

Format : MPEG-4 Visual

Format profile : Advanced Simple@L5

Format settings, BVOP : Yes

Format settings, QPel : No

Format settings, GMC : No warppoints

Format settings, Matrix : Default (H.263)

Codec ID : XVID

Codec ID/Hint : XviD

Duration : 1h 12mn

Bit rate : 1 712 Kbps

Width : 720 pixels

Height : 304 pixels

Display aspect ratio : 2.35:1

Frame rate : 25.000 fps

Color space : YUV

Chroma subsampling : 4:2:0

Bit depth : 8 bits

Scan type : Progressive

Compression mode : Lossy

Bits/(Pixel*Frame) : 0.313

Stream size : 893 MiB (89%)

Writing library : XviD 1.2.1 (UTC 2008-12-04)

Audio

ID : 1

Format : AC-3

Format/Info : Audio Coding 3

Mode extension : CM (complete main)

Codec ID : 2000

Duration : 1h 12mn

Bit rate mode : Constant

Bit rate : 192 Kbps

Channel(s) : 2 channels

Channel positions : Front: L R

Sampling rate : 48.0 KHz

Bit depth : 16 bits

Compression mode : Lossy

Stream size : 100 MiB (10%)

Alignment : Split accross interleaves

Interleave, duration : 40 ms (1.00 video frame)

Interleave, preload duration : 500 ms


1 link










Autor: reydelcaos
http://resumenes-capitulos.blogspot.com/

No hay comentarios:

Publicar un comentario